-
Оцените работу движка

Лучший из новостных
Неплохой движок
Устраивает ... но ...
Встречал и получше
Совсем не понравился


Показать все опросы


  Добавьте наш сайт в закладки, нажмите CTRL+D


0 12
stranger 2-04-2012, 15:01 Просмотров: 24080    
Фильм Мстители (The Avengers) 2012 скачать торрент


В момент, когда весь мир замирает от угрозы неведомого зла, несущего полное разрушение и сметь, Ник Фьюри, основатель и директор всемирной организации по борьбе с преступностью и защите мире под названием Щ.И.Т. приходит к выводу, что для спасения человечества нужно собрать суперкоманду героев, которая будет в силах отвратить надвигающуюся катастрофу.
Команду решают назвать "Мстители". В нее приглашают Железного человека (Тони Старка), Тора, Халка, Капитана Америку (Стива Роджерса), Чёрную Вдову (Наталью Романову) и Соколиного Глаза (Клинта Бартона). Вместе они дадут отпор коварному Локи и защитят планету, но надолго ли воцарится мир?

Если вам удобно качать видео и другие материалы через торренты, попробуйте также новый трекер клипы скачать торрент на Rusbitor


Режиссёр: Джосс Уидон
Главные роли: Роберт Дауни-младший, Крис Эванс, Крис Хэмсворт, Том Хиддлстон, Джереми Реннер, Марк Руффало, Скарлетт Йоханссон
Автор сценария: Джосс Уидон
Продюсер: Ави Арад, Кевин Фейдж, Луис Д, Джон Фавро
Оператор: Шеймас МакГарви
Композитор: Алан Сильвестри
Жанр: фантастика, приключенческий, боевик, экранизация комиксов
Страна, год: США; 2012
Издатель: Walt Disney Pictures, Marvel Studios, Marvel Enterprises
Бюджет: $ 220 000 000
Время: неизвестно
Перевод: Оригинал, русский дубляж


Фильм Мстители (The Avengers) 2012 скачать торрент

У вас нет прав для просмотра скрытого текста. Пройдите регистрацию или авторизацию на сайте!

 




 



Уважаемый посетитель, Вы зашли на сайт как незарегистрированный пользователь. Мы рекомендуем Вам зарегистрироваться либо зайти на сайт под своим именем.

#1 написал: zoren (27 апреля 2012 20:11) Группа: Посетители | Регистрация: 27.04.2012 | ICQ: 13

чо за фигня где торент

#2 написал: stranger (27 апреля 2012 20:32) Группа: Администраторы | Регистрация: 28.03.2012 | ICQ:

zoren, фигни никакой нет smile

Дата выхода в российских кинотеатрах -
3 мая 2012 года. У нас тут слева даже есть отсчет до этого дня feel

Добавьте наш сайт в закладки - нажмите CTRL+D, и тогда Вы всегда сможете к нам зайти чтобы удобно и быстро скачать фильм "Мстители" по прямой ссылке, через торрент или смотреть его онлайн fellow

#3 написал: stranger (1 мая 2012 12:20) Группа: Администраторы | Регистрация: 28.03.2012 | ICQ:

zoren,, вот и выложили - даже раньше срока winked

доступна и прямая закачка, и торрент, и просмотр онлайн!

На подходе - "Люди в черном 3"!


Жмите CTRL+D, добавляйте сайт в закладки чтобы всегда быть в курсе новостей!

#4 написал: stranger (13 мая 2012 18:02) Группа: Администраторы | Регистрация: 28.03.2012 | ICQ:

noksukau, отчет о видеофайле:

Name : Mstiteli.2012.D.CAMRip.PROPER.700MB.avi
Format : AVI
Format/Info : Audio Video Interleave
File size : 703 MiB
Duration : 2h 11mn
Overall bit rate : 746 Kbps
Writing application : VirtualDubMod 1.5.10.2 (build 2540/release)
Writing library : VirtualDubMod build 2540/release
Video #0
ID : 0
Format : MPEG-4 Visual
Format profile : Advanced Simple@L5
Format settings, BVOP : 1
Format settings, QPel : No
Format settings, GMC : No warppoints
Format settings, Matrix : Custom
Codec ID : XVID
Codec ID/Hint : XviD
Duration : 2h 11mn
Bit rate : 606 Kbps
Width : 624 pixels
Height : 304 pixels
Display aspect ratio : 2.053
Frame rate : 30.000 fps
Color space : YUV
Chroma subsampling : 4:2:0
Bit depth : 8 bits
Scan type : Progressive
Compression mode : Lossy
Bits/(Pixel*Frame) : 0.107
Stream size : 571 MiB (81%)
Writing library : XviD 1.2.1 (UTC 2008-12-04)
Audio #1
ID : 1
Format : MPEG Audio
Format version : Version 1
Format profile : Layer 3
Codec ID : 55
Codec ID/Hint : MP3
Duration : 2h 11mn
Bit rate mode : Constant
Bit rate : 128 Kbps
Channel(s) : 2 channels
Sampling rate : 48.0 KHz
Compression mode : Lossy
Stream size : 121 MiB (17%)
Alignment : Aligned on interleaves
Interleave, duration : 33 ms (1.00 video frame)
Interleave, preload duration : 504 ms

#5 написал: cristiano (14 июня 2012 15:58) Группа: Посетители | Регистрация: 14.06.2012 | ICQ:

люди где можно скачать оригиналку???помогите

#6 написал: stranger (14 июня 2012 16:03) Группа: Администраторы | Регистрация: 28.03.2012 | ICQ:

cristiano, как понимать - оригиналку?

#7 написал: stranger (26 августа 2013 13:16) Группа: Администраторы | Регистрация: 28.03.2012 | ICQ:

Цитата: stranger
noksukau, отчет о видеофайле:

Name : Mstiteli.2012.D.CAMRip.PROPER.700MB.avi
Format : AVI
Format/Info : Audio Video Interleave
File size : 703 MiB
Duration : 2h 11mn
Overall bit rate : 746 Kbps
Writing application : VirtualDubMod 1.5.10.2 (build 2540/release)
Writing library : VirtualDubMod build 2540/release
Video #0
ID : 0
Format : MPEG-4 Visual
Format profile : Advanced Simple@L5
Format settings, BVOP : 1
Format settings, QPel : No
Format settings, GMC : No warppoints
Format settings, Matrix : Custom
Codec ID : XVID
Codec ID/Hint : XviD
Duration : 2h 11mn
Bit rate : 606 Kbps
Width : 624 pixels
Height : 304 pixels
Display aspect ratio : 2.053
Frame rate : 30.000 fps
Color space : YUV
Chroma subsampling : 4:2:0
Bit depth : 8 bits
Scan type : Progressive
Compression mode : Lossy
Bits/(Pixel*Frame) : 0.107
Stream size : 571 MiB (81%)
Writing library : XviD 1.2.1 (UTC 2008-12-04)
Audio #1
ID : 1
Format : MPEG Audio
Format version : Version 1
Format profile : Layer 3
Codec ID : 55
Codec ID/Hint : MP3
Duration : 2h 11mn
Bit rate mode : Constant
Bit rate : 128 Kbps
Channel(s) : 2 channels
Sampling rate : 48.0 KHz
Compression mode : Lossy
Stream size : 121 MiB (17%)
Alignment : Aligned on interleaves
Interleave, duration : 33 ms (1.00 video frame)
Interleave, preload duration : 504 ms




На всякий случай уточним, что файл был обновлен:

C:\Mstiteli_2012_BDRip_by_Dalemake.avi
General
Complete name : C:\Mstiteli_2012_BDRip_by_Dalemake.avi
Format : AVI
Format/Info : Audio Video Interleave
File size : 1.47 GiB
Duration : 2h 22mn
Overall bit rate : 1 469 Kbps
Writing application : VirtualDubMod 1.5.10.3 | www.virtualdub-fr.org || (build 2550/release)

#8 написал: stranger (26 августа 2013 13:16) Группа: Администраторы | Регистрация: 28.03.2012 | ICQ:

Writing library : VirtualDubMod build 2550/release
Video
Format : MPEG-4 Visual
Format profile : Streaming Video@L1
Format settings, BVOP : Yes
Format settings, QPel : No
Format settings, GMC : No warppoints
Format settings, Matrix : Custom
Codec ID : XVID
Codec ID/Hint : XviD
Duration : 2h 22mn
Bit rate : 1 331 Kbps
Width : 656 pixels
Height : 368 pixels
Display aspect ratio : 16/9
Frame rate : 23.976 fps
Resolution : 24 bits
Colorimetry : 4:2:0
Scan type : Progressive
Bits/(Pixel*Frame) : 0.230
Stream size : 1.33 GiB (91%)
Writing library : XviD 65
Audio
Format : MPEG Audio
Format version : Version 1
Format profile : Layer 3
Codec ID : 55
Codec ID/Hint : MP3
Duration : 2h 22mn
Bit rate mode : Constant
Bit rate : 128 Kbps
Channel(s) : 2 channels
Sampling rate : 48.0 KHz
Resolution : 16 bits
Stream size : 131 MiB (9%)
Alignment : Aligned on interleaves
Interleave, duration : 42 ms (1.00 video frame)
Interleave, preload duration : 504 ms
Writing library : LAME3.99.1

Посетители, находящиеся в группе Гости, не могут оставлять комментарии к данной публикации.
    «    Август 2017    »
    ПнВтСрЧтПтСбВс
     
    1
    2
    3
    4
    5
    6
    7
    8
    9
    10
    11
    12
    13
    14
    15
    16
    17
    18
    19
    20
    21
    22
    23
    24
    25
    26
    27
    28
    29
    30
    31
     
    оборудование для пастеризации Портрет по фотографии Но, несмотря на то, что сегодня фотография практически вытеснила написанные вручную картины, многие люди все же желают обзавестись своим собственным портретом или сделать столь необычный подарок для друзей и близких. Если вы тоже решились заказать портрет, то сделать это можно несколькими способами. Первый - рисование с натуры. Рекомендованные Ford полностью подходят для нашего двигателя какое масло лить в акпп форд фокус для механических коробок передач, с противозадирной присадкой и модификатором трения.